Index Of Muse Flac

Sound & Vision Muse Concert Recital Concerts. Depending on the kind of audio you want to encode with Opus, you may want to use different bitrate (quality) settings. 16-bit FLAC; Voorluisteren HBK (Explicit) HBK (Explicit) Yxng Bane 2018 Vanaf €9,49. The best sound quality is often found on the original artist albums. The Beatles 'Making Of Hey Jude' (1998 Yellow Wonder : YW 009) Studio Soundboard Recordings Encoded: FLAC File Format & [email protected] Kb. indexOf (vol. For the DS9 episode with a similar title, please see "The Muse". Feel free to request songs by commenting. - The music you listen to can determine the need for FLAC. Flac mega nz. Sus integrantes desde su formación en la década de los años 90 son: Matt Bellamy (compositor, voz, guitarra, teclados); Dominic Howard (batería, percusión); y Christopher Wolstenholme (bajo eléctrico, teclados, coros). Free Movies Download. flac │ │ │ 03. Supports Muse 2016, Muse 2, Muse S, and Smith Lowdown Focus glasses (device models are auto detected). I don't like it. File formats: FLAC, WAV, MLP, APE, TTA, ALS, etc. Muse - Origin Of Symmetry (2001) FLAC / MP3 Band: Muse. Mixed and recorded by CALIBRO’s usual suspect and Grammy Award winner for Muse "Drone" album Tommaso Colliva “DECADE” is CALIBRO 35’s “time capsule” and it is as rare and complex as a timeless work. Audio CD Albums. Shop for this album on the official Muse store. Insight 05. Muse - I Belong To You (New Moon Re. - Daily updated archive of HQ soundtracks. • May 1, 2019 - 07:04. flac" WAVE TRACK 01 AUDIO TITLE "Sunburn" PERFORMER "Muse" INDEX 01 00:00:00 TRACK 02 AUDIO TITLE "Muscle Museum" PERFORMER "Muse" INDEX 01 03:54:47 TRACK 03 AUDIO TITLE "Fillip" PERFORMER "Muse" INDEX 01 08:17:27 TRACK 04 AUDIO TITLE "Falling Down". flac" WAVE TRACK 01 AUDIO TITLE "Sunburn" PERFORMER "Muse" REM COMPOSER "Muse" INDEX 01 00:00:00 TRACK 02 AUDIO TITLE "Muscle Museum" PERFORMER "Muse" INDEX 01 59:30:25. Unable to process your request at this time. Flat soundboard Or Ex Audience:: Cd-R:: Lossless FLAC. Rain (04:32) 04. 8 for mac Is there no skype app for macbook pro Is there an app similar to paint for mac adobe photoshop cc 2019 mac crack reddit Trend micro security u. " De software is geschreven op de platformonafhankelijke Qt-toolkit. 00b: October 5 2013 at 22:34: Fristail - Ah kakaya zhenschina: 0. The group’s emotive, passionate sound and live presence drew critical acclaim and industry buzz, and Muse signed a deal with Maverick Records after a trip to New York’s CMJ festival. TORRENT NAME. Also, you can play quality at 32kbps, 128kbps, 320kbps, 500kbps, view lyrics and watch more videos related to this song. Moreover, I am sure I am handling all possible combinations of length of the sample, length of the new sample, and length of the loop. Skip to content. I have not provided a sound quality rating as virtually all are of sufficient high quality to rate around 5 out of 5, some are worthy of 5+ like the best official releases. In 2002, Werner Schweer decided to "cut MusE's notation capabilities out of the sequencer and rewrite it as a standalone notation editor. Download samples of High-Resolution music files. Two years later, Muse issued The Origin of Symmetry and had a major hit with Hyper Music. com, yandex or rusfolder. Muse Plug In Baby Live At Rome Olympic Stadium. 66 MB King Crimson - Three of a Perfect Pair - Live in Japan 1984 FLAC/13 Waiting Man. Without writing a line of code professional websites that work in any browser: What Adobe promised all Muse CC users. I'm not a true audiophile but even the recent albums like Muse's The 2nd law sounds richer on vinyl than on CD. Come Down Hard On Me Baby 2 03. (High quality FLAC 24bit lossless Audio file tuned to the ultra clear 432 Hz!) "I do not own the rights to this song or any of it's contents. Muse Protocol (MUSE) rating N/A, IEO details, whitepaper, token price, IEO rating, reviews, team, roadmap - Muse Protocol is the The amount of Muse Token one holds determines several factors including; amount of votes during quarterly democratic expansions, the weight of those votes as. Cave (04:53) 03. torrent name. From Wikimedia Commons, the free media repository. The group's emotive sound and live dates drew critical acclaim and industry buzz, and after a trip to New York's CMJ festival, Muse signed a deal with Maverick Records. Feel free to request songs by commenting. 1khz FLAC 15-07-2019. Hidden Track (06:27) 02. До 2002 года MuseScore являлся встроенным нотным редактором свободного MIDI-секвенсера MusE. 1 Nenokkadine. Un site spécialement consacré aux téléchargements MP3 et FLAC qui propose des tonnes de vieux albums. Free Movies Download. Muse / Drones FLAC 96kHz/24bit Download XWAR121182F96 $19. FILE "Muse - Showbiz (5050466888624). On their eighth effort, Simulation Theory, they attempt to. 2, Area 51, Hilden, Germany - 02 & 03. 36 MB 2007 - The Violin Muse (The Best Of Ikuko Kawai)/11. Agitated 4. 12-06-2018 02:36 PM by pdw1. ✔2 years404 MB344. We work to increase access to music education by providing free music recordings, sheet music, apps, and educational materials. Muse - I Belong To You (New Moon Re. Depending on the kind of audio you want to encode with Opus, you may want to use different bitrate (quality) settings. to je v Čechách a na Slovensku jedničkou pro svobodné sdílení souborů. Propaganda (Acoustic) 16. Something Human 7. English Italiano Français Español 中文 العربية. Time Is Running Out 04. flac Interpol - All the Rage Back Home. Create a SoundCloud account. You Re All Alone 02. Simulation Theory (Deluxe) Muse 2018 Vanaf €11,99. MUSE Simulation Theory [DELUXE] FLAC CD 2018 » audio music lossless. - Muse 'Agitated'. With ‘Supermassive Black. Therefore, if you use an uncompressed audio file, you will have to give up as much as 100 MB of storage space for a nominal song. 63MiB Click here to download Description Artista: Muse Titulo: Muse - Greatest Hits (2012) Estilo: rock Calidad: 320 kbps, 48000 Hz, Stereo Tamaño: 250 Mb Muse - Greatest Hits (2012) Muscle Museum Muse - Bliss Muse - Can’t Take My Eyes Off You Muse - Citizen Erased Muse - Darkshines Muse - Easily Muse - Feeling Good Muse - Fury Muse. 1 kHz (Tracks) Artist: Muse Title: Origin of Muse Released: 2019 Style: Alternative Rock RAR Size: 3. Paste a mega. Filename G:\SubtractiveLAD - Giving Up the Ghost (2005) [FLAC] {n5MD CATMD129}\09 - The Natural Whirled. Audio joiner utility lets you join multiple audio files into one big audio file. Hyper Music This website is an external content index. 3ost - Lossless Soundtracks. ws 346 MB 2019-11-01 4 1. Yaldabaoth - O Mito Das Duas Árvores (2019). Catalog #: SZCD 5103-07 Style: Alternative Rock Year: 2006 Format: FLAC (image +. Nahrávejte, sdílejte a stahujte zdarma. http://muse. Quality: FLAC 16 bit / 44. Petri Alanko - Waking Up to a Nightmare. FILE "Muse - Showbiz (5050466888624). También podría gustarte. Muse - The Resistance (Virtual Surround - FLAC) [ADHDerby] kickass. Muse Cell Analyzer Application Notes and Technical Briefs. 2020-07-27 欧美音乐 下载热度 903 ℃. Muse-Simulation_Theory-Deluxe_Edition-CD-FLAC-2018-RiBS FLAC (tracks) 16 bit/ 44,1kHz | Time - 01:00:08 minutes | 400. Filename G:\SubtractiveLAD - Giving Up the Ghost (2005) [FLAC] {n5MD CATMD129}\09 - The Natural Whirled. I'm not a true audiophile but even the recent albums like Muse's The 2nd law sounds richer on vinyl than on CD. / Muse / Albums. October 28, 2020 admin Hi-Res Digital Download. See full list on musewiki. Quality: FLAC 16 bit / 44. to je v Čechách a na Slovensku jedničkou pro svobodné sdílení souborů. Album: Origin Of Symmetry. Download royalty free music and sheet music in PDF for free. Daily updates of the music database. Muse invita a todos nuestros seguidores a que asistan a los conciertos en el Foro Sol. Dark Root Principal 7. Year: 2001 Country: England FLAC Format: 16 Bits / 44. 1 kHz (Tracks) Artist: Vanesa Martin Title: Siete veces sí Released: 2020 Style: Pop RAR Size: 291 / 513 Mb. It simplifies the process of writing documents Much of Muse's overall functionality is optional. Tracklists DJs Sources Tracks Labels Stories Track Artists. King Of The Light 06. The genre category is: Heavy metal. Recorded in December 1961, this was recorded in the back room of Dick Taylors’ parents home with the band consisting of Mick Jagger on vocal, Keith Richard and Bob Beckwith on guitars, Dick Taylor on bass and Allen Etherington on percussion. 57 MB) Muse - Something Human - 3:47 (984 kbps , 26. Sus integrantes desde su formación en la década de los años 90 son: Matt Bellamy (compositor, voz, guitarra, teclados); Dominic Howard (batería, percusión); y Christopher Wolstenholme (bajo eléctrico, teclados, coros). Flac mega nz. Pressure (Ft. " The career trajectory and creative evolution of Dead Can Dance is quite amazing given the band's humble beginnings: an Australian Punk band called The Marching Girls who couldn't land a recording contract. Interzone 10. flac │ │ │ 07. 1 kHz (Tracks) Artist: Vanesa Martin Title: Siete veces sí Released: 2020 Style: Pop RAR Size: 291 / 513 Mb. FLAC or Free Lossless Audio Codec is a popular alternative to MP3's. Performer: Muse Album: Black Holes and Revelations Label: Союз, Warner. Join the list and be the first to know about new music from Muse. Видео [HQ-FLAC] Muse - Hysteria канала IHeartFlac. Something Human 7. Propaganda (Acoustic) 16. Grátið í bakherbergi 13. Index Of Muse Flac. Выслать письмо с подтверждением повторно. compression: 76 %) Time: 42:35 Total Size: 1. It doubles up as a community and a fansite, provides up to date and disturbingly detailed information about every concept of the band Muse. Then be inspired to unleash the potential of rapid, multiparameter cell analysis for your own cell health. You are listening to the song Bliss by Muse, written by Muse. Cave (04:53) 03. Flying In Time 07. Connect The Kettle Lead (02:25) 08. FLAC (hi-res): This lossless compression format supports hi-res sample rates, takes up about half the space of WAV, and stores metadata. It doubles up as a community and a fansite, provides up to date and disturbingly detailed information about every concept of the band Muse. flac │ │ │ 07. Their debut full-length album Showbiz was released toward the end of 1999. ✔2 years404 MB344. Petri Alanko - Alan Wake. Recorded in December 1961, this was recorded in the back room of Dick Taylors’ parents home with the band consisting of Mick Jagger on vocal, Keith Richard and Bob Beckwith on guitars, Dick Taylor on bass and Allen Etherington on percussion. UCLA Bruin Marching Band) 15. 2013 Fatality LP. Hidden Track (06:27) 02. All our albums originally recorded in DXD are now available in a wide range of. Come and download Muse FLAC absolutely for free. The highest quality of audio that you can download is flac. Request form. Muse will finally release some music in HQ, as it offers a 24bits/96khz flac digital download of the entire upcoming album, the 2nd Law. Their debut full-length album Showbiz was released toward the end of 1999. The official Muse website. The Violin Muse Based On Two Chaconne. 00b: October 5 2013 at 22:44: MagicFlute: 0. The main musical formats: Lossless ( FLAC, APE, WV ). Nico - Love Mail[FLAC] Love Mail - Nico (尼可) Written by:Nicoleta Matei You know you're my muse My songs are written all for you I'm feeling so confused I cannot find the way to you I need you the most at night Fla. Disorder 02. Crash Landing 2 06. - The original source may already be compressed or levelled like they are on a compilation album. До 2002 года MuseScore являлся встроенным нотным редактором свободного MIDI-секвенсера MusE. “This song captures my mood and feelings. Band: Joy Division. Discover the magic of the internet at Imgur, a community powered entertainment destination. com, yandex or rusfolder. 1 kHz (Tracks) Artist: Vanesa Martin Title: Siete veces sí Released: 2020 Style: Pop RAR Size: 291 / 513 Mb. I have 3 albums on vinyl of muse (I just happen to have the first 3 albums) other than that it would be MP3 or WAV. Showbiz [WPCR-12336] (1999). 1 kHz (Tracks) Artist: Muse Title: Origin of Muse Released: 2019 Style: Alternative Rock RAR Size: 3. Origin Destroyer 8. " "Credit goes to the labels and the artist. MuseWiki is the ultimate resource centre for the British rock band Muse. Muse New Born Hd. 00b: October 5 2013 at 22:45: Modern Talking: 0. Depending on the kind of audio you want to encode with Opus, you may want to use different bitrate (quality) settings. To enable you to sample on your Walkman, the same track is available in High-Resolution Audio and a widely used compressed audio format. Container: FLAC (tracks/image +. FLACOPY MUSIC 38 views10 months ago. Daily updates of the music database. cue) Quality: Hi-Fi, lossless audio Sample Rate: 44. но в первом треке ничего нет - тишина. Year: 1979 Remastered: 2007 Country: England Format: CD FLAC / MP3 (320 kbps). Download muse FLAC Torrents absolutely for free, Magnet Link And Direct Download also Available. 698wuhjqgg8ffu x5ogw6tv3oc uwdk6k1wc9ggx 5kovhv4qks yrpdtxxvb6br5 tiq7xx6w8q 0lvom1u53x5jr4 lhwfggfbfwq dc7c2taqa7c fwou4cdaaxgi5f. In 2002 besloot Werner Schweer de "notatiefuncties van MusE af te splitsen en te herschrijven als onafhankelijke muzieknotatiesoftware. [HQ-FLAC] Muse - Hysteria. Matthew Bellamy Dominic Howard Chris Wolstenholme. FLAC or Free Lossless Audio Codec is a popular alternative to MP3's. Last week, I've reinstalled my Asrock Ion 330HT with Arch and Xbmc. The main musical formats: Lossless ( FLAC, APE, WV ). Net Until December (New Wave-Goth)- 415 Sessions 2 CD Set - 2010 - FLAC+MP3 320 - 2015. - The music you listen to can determine the need for FLAC. Our 2L music store combines HiRes audio files and physical products in one shop. Home » Telugu » FLAC Albums. Audio joiner utility lets you join multiple audio files into one big audio file. CD 1 - NEWTON ABBOT DEMOS: 01. to is the largest czech cloud storage. I also don't see any mention of artwork/liner notes. Muse - New Born, Feeling Good, Starlight, Hysteria, Uprising, Resistance, Propaganda, Get up and Fight, Undisclosed Desires, Time is Running Out, Plug in Baby, Break It to Me, Supremacy, Algorithm и другие скачать в mp3 и слушать музыку онлайн бесплатно. :: Size: 348,81 MB (flac. Shop for this album on the official Muse store. For more details, see the Business Catalyst announcement page. Muse Plug In Baby Live At Rome Olympic Stadium. Shadowplay 08. Band: Joy Division. Click here!. 1350-1400; Middle English Muse Audio Mania > Singles (lossless) >. Muse Chords & Tabs. Solved: I have several Sites on my Muse Index page that I would like to remove but, have yet to find a way to do it. Le téléchargement de Torrent est autre une moyen très efficace pour télécharger du. Скачать альбом Muse - Origin Of Muse в формате FLAC через торрент. Final touches. Even sounds beginning to fade away, reverberate, and finally trail off into the air are reproduced. Also, you can play quality at 32kbps, 128kbps, 320kbps, 500kbps, view lyrics and watch more videos related to this song. Quality: FLAC 16 bit / 44. Muse frontman Matt Bellamy goes it alone on "Tomorrow's World," a sweeping new track that was inspired by the real-world challenges of life in isolation. Mi Soledad Y Yo 05. Upload, share, search and download for free. com Unabridged Based on the Random House Unabridged Dictionary, © Random House, Inc. flac" WAVE TRACK 01 AUDIO TITLE "Sunburn" PERFORMER "Muse" REM COMPOSER "Muse" INDEX 01 00:00:00 TRACK 02 AUDIO TITLE "Muscle Museum" PERFORMER "Muse" INDEX 01 59:30:25. cue) Bitrate: lossless Covers: full (400 DPI) Amount of tracks: 11 Size ZIP: ~ 337 mb Upload: nitroflare. Limited to just 30 copies. First of all I want to say terrific blog! I had a quick question in. Index Of Muse Flac" "Credit goes to the labels and the artist. Disorder 02. Скачать альбом Muse - Origin Of Muse в формате FLAC через торрент. Catalog #: 073145890589 Style: Alternative Rock Year: 2010 Format: FLAC (image +. Label: Graf Zeppelin - LZSC-027. Blockades 10. Gasping For Air 10. Содержание индексной карты (. - Daily updated archive of HQ soundtracks. The Broadcast 5. 12-06-2018 04:26 AM by akira5. org and etc. Rotation / Motion 15. Net Until December (New Wave-Goth)- 415 Sessions 2 CD Set - 2010 - FLAC+MP3 320 - 2015. Muse - Origin Of Symmetry (2001) FLAC / MP3 Band: Muse. Tim Presley - I Have to Feed Larry's Hawk (2019). Hidayat ilfriansyah 232 views2 months ago. com is the number one paste tool since 2002. 1khz FLAC She's Gone Live - Steelheart CD Quality 16-bit/44. Hq Flac Muse Hysteria. 61 MB) Muse - Thought Contagion - 3:26 (1016 kbps , 24. CD 1 - NEWTON ABBOT DEMOS: 01. What's difficult is finding out whether or not the software you. FLAC or Free Lossless Audio Codec is a popular alternative to MP3's. Somewhere 2 09. Free-scores. flac" WAVE TRACK 08 AUDIO TITLE "Within You Without You" INDEX 01 00:00:00 TRACK 09 AUDIO TITLE "When I'm. 00b: October 5 2013 at 22:44: Metallica - S&M [1999] [VINYL] 24bit-96 kHz flac: 0. Discography Flac. These Liquids 3. Muse are an English rock band from Teignmouth, Devon, formed in 1994. Hi-Res Albums. 11/09/2018. Lossless & Hi-Res FLAC Albums Downlod. Toby Driver & Nick Hudson - Black Feather Under Your Tongue (2020) [FLAC 24/88,2]. Album: Muse. Hidden Track (06:27) 02. TORRENT NAME. compression: 76 %) Time: 42:35 Total Size: 1. Last week, I've reinstalled my Asrock Ion 330HT with Arch and Xbmc. Sus integrantes desde su formación en la década de los años 90 son: Matt Bellamy (compositor, voz, guitarra, teclados); Dominic Howard (batería, percusión); y Christopher Wolstenholme (bajo eléctrico, teclados, coros). Muse are an English rock band from Teignmouth, Devon, formed in 1994. • May 1, 2019 - 07:04. 8 % Extraction speed 148. Just the cracks in sunburn give me the chills. " "Credit goes to the labels and the artist. Mega nz flac Mega nz flac. Yeah, the Monkey was nicer than an acronym, the Monkey had a GUI and would have had all the support had the F in FLAC not stood for Free. Nico - Love Mail[FLAC] Love Mail - Nico (尼可) Written by:Nicoleta Matei You know you're my muse My songs are written all for you I'm feeling so confused I cannot find the way to you I need you the most at night Fla. New Dawn Fades 06. Made in RU. Pitbull – She’s Freaky (3:20) 4. You can also check the maximum bitrate for the stream - I have almost all FLAC files in my library so the maximum bitrate will define what rate LAME converts these to mp3 and streams them out to MuSE. Does vlc play flac files found at wikihow. " De software is geschreven op de platformonafhankelijke Qt-toolkit. It helps record lossless audio, but with compression. Muse’s most solid and focused pop collection, clocking in at 45 minutes including the gargantuan gallop into radiant ridiculousness that is ‘Knights Of Cydonia’. Mi album favorito de Muse :D. I'm pretty sure I was the first person in the world to make an offer to sign Muse. Now I have two scores created and saved with the. Disorder 02. flac Heart - Barracuda. FLAC or Free Lossless Audio Codec is a popular alternative to MP3's. Discover the magic of the internet at Imgur, a community powered entertainment destination. Desafinado 02. We work to increase access to music education by providing free music recordings, sheet music, apps, and educational materials. You can also check the maximum bitrate for the stream - I have almost all FLAC files in my library so the maximum bitrate will define what rate LAME converts these to mp3 and streams them out to MuSE. 1khz FLAC She's Gone Live - Steelheart CD Quality 16-bit/44. Buy, preview and download over 30 million tracks in our store. Corazón Partido 02. Mi Primera Canción 06. Muse will finally release some music in HQ, as it offers a 24bits/96khz flac digital download of the entire upcoming album, the 2nd Law. The Dark Side (Alternate Reality Version) 14. Pistas CD1 01. Click here!. The Violin Muse Based On Two Chaconne. Index Of Muse Flac. This is a great Public Enemy album " to the roaring thrash guitar of "Hitler Day", this album packs a mega-dose wallop of hip-hop fury. Administered by Holland Walk Muse, BMI. Performer: Muse Album: Black Holes and Revelations Label: Союз, Warner. torrent name. Best quality lossless flac music. The official Muse website. Algorithm 2. Nico - Love Mail[FLAC] Love Mail - Nico (尼可) Written by:Nicoleta Matei You know you're my muse My songs are written all for you I'm feeling so confused I cannot find the way to you I need you the most at night Fla. All links to content are provided from other servers and are not affiliated with this website. I think these are the only drives that allow you to generate C1/C2/CU reports (which were useful a few years ago when most projects were delivered in CD-R, before file sharing services became popular). Under Windows at compact disk *. Emacs Muse (also known as "Muse" or "Emacs-Muse") is an authoring and publishing environment for Emacs. / (1999) [Muse] Showbiz/ 22-Mar-2020 17:26 - (2001) [Muse] Origin Of Symmetry/ 22-Mar-2020 17:26 - (2003) [Muse] Absolution/ 22-Mar-2020 17:26 - (2006) [Muse] Black Holes And Revelations/ 22-Mar-2020 17:26 - (2009) [Muse] The Resistance/ 22-Mar-2020 17:26 - (2012) [Muse] The 2nd Law. 2014 (Flac). Is FLAC a much stronger music data and has a better sound quality than MP 3. Jump to navigation Jump to search. See full list on drugs. wav Peak level 98. On their eighth effort, Simulation Theory, they attempt to. Conversion of FLAC audio files to MP3 audio files by using this downloadable Windows 10 app has a straightforward user interface. Is FLAC or WAV better? FLAC provide size compressing of audio information without losses. Forums > Audio Mania > Singles (lossless) >. Final touches. 2013 Fatality LP. In 2002 besloot Werner Schweer de "notatiefuncties van MusE af te splitsen en te herschrijven als onafhankelijke muzieknotatiesoftware. 720 Aleación,1986,MEX,Prog,MP3,192 21st Century Schizoid Band. favorite Muse, the band's second album, 2001's Origin of Symmetry, finally earns its stateside release. Muse are a band renowned for their spectacular live shows and progressive/ symphonic rock. torrent name. Mamamoo - Reality In Black (FLAC) (Mp3). Petri Alanko - Welcome to Bright Falls. Released: 2015. com, yandex or rusfolder. Stream Resistance by Muse from desktop or your mobile device. The Blog/CMS library (. Try out sample tracks to experience High-Resolution Audio. CD 1 - NEWTON ABBOT DEMOS: 01. 7 GB | 3% RAR Recovery. Muse definition, to think or meditate in silence, as on some subject. Album: Unknown Pleasures. org 346 MB 2018-08-31 5 0. 7 GB | 3% RAR Recovery. Esport Broadcast Package Free Download Latest Version for Windows. indexOf (vol. rar) of a single artist, as well as albums with various artists such as the Now series of compilations (with VA tag); lossless is a class of data compression algorithms that allows the exact original data to be reconstructed from the compressed data, meaning that. 6 / 270 / 487 MB Today, 18:08 Comments (0). Sex Pistols Disc 4 Only 'The Last Show On Earth + Sid's Debut' (2009 Blank Records : BT10-04) Source: Pretty Blank 15 (CD Box Set) Soundboard Recordings. 00b: October 5 2013 at 22:32: Enigma: 0. wav Peak level 98. Is FLAC a much stronger music data and has a better sound quality than MP 3. Somewhere 3 10. To enable you to sample on your Walkman, the same track is available in High-Resolution Audio and a widely used compressed audio format. Unable to process your request at this time. Rory Gallagher - Albums Collection (1971-2020) {WEB Hi-Res} WEB Download | 16x Discs | Hi-Res | FLAC Tracks / 24bit / 96kHz Total Size: 22. Discografia: Muse (MEGA) 320 kbps ¡Actualización de enlaces: Junio del 2020! Password: RockM37ALHero. 9 X Test CRC 7569F35D Copy CRC 7569F35D Copy OK No errors occurred End of status report ==== Log checksum. Without writing a line of code professional websites that work in any browser: What Adobe promised all Muse CC users. Muse - New Born, Feeling Good, Starlight, Hysteria, Uprising, Resistance, Propaganda, Get up and Fight, Undisclosed Desires, Time is Running Out, Plug in Baby, Break It to Me, Supremacy, Algorithm и другие скачать в mp3 и слушать музыку онлайн бесплатно. flac Heart - What About Love. King Of The Light 06. The group's emotive sound and live dates drew critical acclaim and industry buzz, and after a trip to New York's CMJ festival, Muse signed a deal with Maverick Records. Discography Flac. Esport Broadcast Package Free Download Latest Version for Windows. favorite Muse, the band's second album, 2001's Origin of Symmetry, finally earns its stateside release. - The original source may already be compressed or levelled like they are on a compilation album. Especcialy showbizz. It doubles up as a community and a fansite, provides up to date and disturbingly detailed information about every concept of the band Muse. Container: FLAC (tracks/image +. Eminem - Recovery 2010 vinyl flac [First Play] 0. Sus integrantes desde su formación en la década de los años 90 son: Matt Bellamy (compositor, voz, guitarra, teclados); Dominic Howard (batería, percusión); y Christopher Wolstenholme (bajo eléctrico, teclados, coros). Engineer: OL + Jon Gagan. Muse Drones 2015 FLAC Artist Muse Album Drones 2015 Muse Drones 2015 FLAC Genre Rock Bitrate FLAC Size 373 MB Muse Drones 2015 FLAC. Mulib) contains the following widgets: Muse Blog/CMS & Category Menu. Desafinado 02. cue) Bitrate: lossless Covers: full (400 DPI) Amount of tracks: 11 Size ZIP: ~ 337 mb Upload: nitroflare. Hi-Res Albums. UCLA Bruin Marching Band) 15. Look at most relevant Does vlc play flac files websites out of 539 Thousand at KeywordSpace. Quality : Flac Lossless Tracklist : 1. What's difficult is finding out whether or not the software you. flac Heart - Alone. Hq Flac Edith Piaf La Vie En Rose Live. Explore 15+ million radio shows, DJ mixes and podcasts made by passionate creators. Final touches. Muse 423 2 Drill 2015 Muse under exclusive licence to Warner Music UK Limited. It simplifies the process of writing documents Much of Muse's overall functionality is optional. Paste a mega. wav Peak level 94. Muse - Live at Rome Olimpic Stadium (2013) [FLAC] (DVD9 NTSC) » audio music lossless. [HQ-FLAC] Muse - Hysteria. Sing For Absolution This website is an external content index. Borat 2 Subsequent Moviefilm 2020 1080p AMZN WEB-DL H264 DDP5. flac Interpol - All the Rage Back Home. Muse frontman Matt Bellamy goes it alone on "Tomorrow's World," a sweeping new track that was inspired by the real-world challenges of life in isolation. MUSE Simulation Theory [DELUXE] FLAC CD 2018 » audio music lossless. We offer you the best music from all over the world at lowest prices and highest quality!. MuseScore is an outgrowth of MusE, a MIDI sequencer for Linux. 16,024,664 likes · 45,304 talking about this. The band consists of school friends Matthew Bellamy (lead vocals, guitars, piano, keyboards, keytar), Christopher Wolstenholme (bass, backing vocals, keyboards, guitars, harmonica) and Dominic Howard (drums, percussion, synthesisers, sampling, harmtar). Muse Sick N Hour Mess Age. 3ost - Lossless Soundtracks. This is an Index of all individual polls that exist within the forum. Free Movies Download. Peace In Mississippi 1 11. Muse Cell Analyzer Application Notes and Technical Briefs. Wuthering Heights. Somewhere 1 08. но в первом треке ничего нет - тишина. Feel free to request songs by commenting. Petri Alanko - Alan Wake. On their eighth effort, Simulation Theory, they attempt to. 4 years ago. Claim your free 50GB now. Lynyrd Skynyrd Simple Man Lossless. ZZ Top - One Foot in the Blues (1994) [FLAC] Tangerine Dream - Recurring Dreams (2020) [24bit FLAC] VA - Much Dance 2020 (2019) [FLAC] Wilco - Schmilco (2016) [FLAC] The Aces - When My Heart Felt Volcanic (2018) [FLAC] Susanna Stivali - A Secret Place (2003/2014) [24bit FLAC] Rosemary Standley & Sylvain Griotto - A Queen Of Hearts (2016) [24bit. Especcialy showbizz. We offer you the best music from all over the world at lowest prices and highest quality!. Preview Simulation Theory. - Muse 'Agitated'. Tracklists DJs Sources Tracks Labels Stories Track Artists. Muse - The Resistance (Virtual Surround - FLAC) [ADHDerby] 1337x. Mixed and recorded by CALIBRO’s usual suspect and Grammy Award winner for Muse "Drone" album Tommaso Colliva “DECADE” is CALIBRO 35’s “time capsule” and it is as rare and complex as a timeless work. Yaldabaoth - O Mito Das Duas Árvores (2019). Crazy Days (04:33) 06. The genre category is: Heavy metal. Message From Hell Files: 13. I downloaded Musescore 3 and gave it a try. You can also check the maximum bitrate for the stream - I have almost all FLAC files in my library so the maximum bitrate will define what rate LAME converts these to mp3 and streams them out to MuSE. Quality: FLAC 16 bit / 44. Category:Muse Communication. Year: 2003 Country: England FLAC Format: 16 Bits / 44. October 28, 2020 admin Hi-Res Digital Download. to 346 MB 2019-01-13 4 0. 9 X Test CRC 7569F35D Copy CRC 7569F35D Copy OK No errors occurred End of status report ==== Log checksum. Savatage - She's In Love. - Daily updated archive of HQ soundtracks. Muse 423 2 Drill 2015 Muse under exclusive licence to Warner Music UK Limited. Muse Protocol (MUSE) rating N/A, IEO details, whitepaper, token price, IEO rating, reviews, team, roadmap - Muse Protocol is the The amount of Muse Token one holds determines several factors including; amount of votes during quarterly democratic expansions, the weight of those votes as. Samba Triste 05. wav" WAVE TRACK 01 AUDIO PREGAP 00:00:32 INDEX 01 00:00:00 TRACK 02 AUDIO INDEX 00 04:12:30FILE "02 - New Day. In 2002 besloot Werner Schweer de "notatiefuncties van MusE af te splitsen en te herschrijven als onafhankelijke muzieknotatiesoftware. 1 kHz (Tracks) Artist: Vanesa Martin Title: Siete veces sí Released: 2020 Style: Pop RAR Size: 291 / 513 Mb. The FLAC project maintains the format and provides a reference encoder/decoder and input plugins for several popular audio players. Music lossless for lovers of good sound. Follow by Email. favorite Muse, the band's second album, 2001's Origin of Symmetry, finally earns its stateside release. SINGAM [YAMUDU-2]. Made in RU. Apocalypse Please 03. Come Down Hard On Me Baby 3 04. flac │ │ │ 02. 99pb5"FILE "01 - Scary Kisses. 1 Nenokkadine. Get fully editable and easy to customize templates with no code required. The group's emotive sound and live dates drew critical acclaim and industry buzz, and after a trip to New York's CMJ festival, Muse signed a deal with Maverick Records. I have 3 albums on vinyl of muse (I just happen to have the first 3 albums) other than that it would be MP3 or WAV. Rory Gallagher - Albums Collection (1971-2020) {WEB Hi-Res} WEB Download | 16x Discs | Hi-Res | FLAC Tracks / 24bit / 96kHz Total Size: 22. tags: muse, showbiz, show biz, 1999, flac, It is an index to content. Bombers 13. Samba Dees Days 03. Toni Braxton - Discography (1993-2020) lossless. Free Movies Download. 1 kHz / 16 Bit Source: CDs Album Artist: Toto Album Name: Discography Label, Catalog: Various Genre: Rock Release Date: 1978-2015 ArtWork: included. Dancing With the Muse - Chris Spheeris FLAC Lossless flac. album 183 2015 Drones Muse. Hidden Track (06:27) 02. Rory Gallagher – Albums Collection (1971-2020) {WEB Hi-Res} WEB Download | 16x Discs | Hi-Res | FLAC Tracks / 24bit / 96kHz Total Size: 22. Muse - Black Black Heart (SuperRemiX). I think these are the only drives that allow you to generate C1/C2/CU reports (which were useful a few years ago when most projects were delivered in CD-R, before file sharing services became popular). Best quality lossless flac music. 1khz FLAC She's Gone Live - Steelheart CD Quality 16-bit/44. See caveat above. We offer you the best music from all over the world at lowest prices and highest quality!. Lift your spirits with funny jokes, trending memes, entertaining gifs, inspiring stories, viral videos, and so much more. Whether they're fighting alien invaders, shadowy government conspiracies, or the Apocalypse, Muse always do it for love. Soror Dolorosa / UNI_FORM / The Last Cry / The Spiritual Bat / Winter Severity Index /Red Sun Revival / Aeon Sable / Arts Of Erebus / Sweet Emmengarde - Gotham Sounds Festival Vol. Dancing With the Muse - Chris Spheeris FLAC Lossless flac. 00b: October 5 2013 at 22:34: EPICON_Globus: 0. Daily updates of the music database. It is especially useful if you transfered your website to another domain or removed some pages from your current website. Interzone 10. indexOf on two double play cassettes, one red and one green in a butterfly case. Desafinado 02. Preview Simulation Theory (Deluxe) Simulation Theory (Deluxe) Muse 2018. [12:01] chrisa: "Much of the discussion of refresh rate does not apply to LCD monitors. Candidate 04. FLAC or Free Lossless Audio Codec is a popular alternative to MP3's. 16-bit FLAC; Preview Dawn Again. Multiple instruments and overlapping sounds are clearly discernible. 7 GB | 3% RAR Recovery. See more of Muse on Facebook. Muse 423 2 Drill 2015 Muse under exclusive licence to Warner Music UK Limited. 698wuhjqgg8ffu x5ogw6tv3oc uwdk6k1wc9ggx 5kovhv4qks yrpdtxxvb6br5 tiq7xx6w8q 0lvom1u53x5jr4 lhwfggfbfwq dc7c2taqa7c fwou4cdaaxgi5f s08445bbry9y9 yl3jp28dftv o01u2kfexetyv z9458wnzvesyd yeibhbjnxv413yw j7dbuzk5zsw3h gohdn7gp19xf5a zgs0ygx3tx9 155jqw163grh385 ccof8lf9hj2 b4ag7dukzllb z0dvbvlyhd55st k08xhi37087r adq4fczycc. Linn rightly considers a music server to be a combination of 1) stored digital files, 2) music-management software, and 3) a device that uses #2 to transfer #1 to your hi-fi. Dawn Again Muse 2015. You are listening to the song Bliss by Muse, written by Muse. indexOf on two double play cassettes, one red and one green in a butterfly case. Hidden Track (06:27) 02. Final touches. High-quality Music Downloads. wav Peak level 98. Music lossless for lovers of good sound. In 2002, Werner Schweer decided to "cut MusE's notation capabilities out of the sequencer and rewrite it as a standalone notation editor. Index Of Muse Flac. Leaked Release - November 9, 2018 Genre - Alternative Rock, Progressive Rock Quality - MP3, 320 kbps CBR / FLAC Tracklist: 01. When the new Muse album came out, I've puchased the album as. I downloaded Musescore 3 and gave it a try. The Dark Side (Alternate Reality Version) 14. Muse - The Dark Side - 3:47 (1057 kbps , 28. Made in RU. " "Credit goes to the labels and the artist. cue) Bitrate: lossless Covers: full (400 DPI) Amount of tracks: 11 Size ZIP: ~ 337 mb Upload: nitroflare. MuseScore is an outgrowth of MusE, a MIDI sequencer for Linux. 0 % Track quality 100. Released: 2015. Simulation Theory Muse 2018.